#TITLE:Evans;
#SUBTITLE:SDO China lv29 - [N]hok[Q] Simfile;
#ARTIST:DJ Yoshitaka;
#TITLETRANSLIT:;
#SUBTITLETRANSLIT:;
#ARTISTTRANSLIT:;
#CREDIT: [N]hok[Q];
#BANNER:bn.png;
#BACKGROUND:bg.png;
#LYRICSPATH:;
#CDTITLE:cd.png;
#MUSIC:Evans.mp3;
#OFFSET:-0.037;
#SAMPLESTART:25.983;
#SAMPLELENGTH:20.757;
#SELECTABLE:YES;
#DISPLAYBPM:185.000;
#BPMS:0.000=185.007,1.000=184.995,2.000=185.007,3.000=184.995,4.000=185.007,5.000=184.995,6.000=185.007,7.000=184.995,9.000=185.007,10.000=184.995,11.000=185.007,12.000=184.995,13.000=123.214,13.500=371.134,14.000=123.203,14.500=371.134,15.000=123.203,15.500=371.134,16.000=185.007,17.000=184.995,18.000=185.007,19.000=184.995,20.000=185.007,21.000=184.995,22.000=185.007,23.000=184.995,24.000=123.203,24.500=371.134,25.000=185.007,26.000=184.995,27.000=185.007,28.000=184.995,29.000=123.214,29.500=371.134,30.000=123.203,30.500=371.134,31.000=123.203,31.500=371.134,32.000=185.007,33.000=123.203,33.500=371.134,34.000=185.007,35.000=123.203,35.500=371.134,36.000=377.754,36.125=73.141,36.250=353.635,36.500=189.524,37.000=122.231,37.500=374.512,38.000=122.979,38.375=373.186,38.750=184.995,39.000=122.553,39.250=377.358,39.500=184.995,41.000=185.007,42.000=184.995,43.000=185.007,44.000=184.995,45.000=185.007,46.000=184.995,48.000=185.007,49.000=184.995,50.000=185.007,51.000=184.995,52.000=185.007,53.000=123.203,53.500=371.134,54.000=123.203,54.500=371.134,55.000=123.214,55.500=371.134,56.000=184.995,57.000=185.007,58.000=184.995,59.000=185.007,60.000=184.995,61.000=185.007,62.000=184.995,64.000=185.007,65.000=184.995,66.000=185.007,67.000=184.995,68.000=353.635,68.125=74.105,68.250=377.358,68.625=75.094,68.750=353.635,69.000=353.982,69.125=74.105,69.250=377.358,69.500=353.635,69.625=74.105,69.750=377.358,70.000=123.203,70.500=371.134,71.000=122.543,71.500=377.358,72.000=92.497,73.000=92.500,76.000=184.995,78.000=185.007,79.000=184.995,81.000=185.007,82.000=184.995,83.000=185.007,84.000=184.995,86.000=185.007,87.000=184.995,89.000=185.007,90.000=184.995,91.000=185.007,92.000=184.995,94.000=185.007,95.000=184.995,97.000=185.007,98.000=184.995,99.000=185.007,100.000=184.995,102.000=185.007,103.000=184.995,105.000=185.007,106.000=184.995,107.000=185.007,108.000=184.995,110.000=185.007,111.000=184.995,113.000=185.007,114.000=184.995,115.000=185.007,116.000=184.995,118.000=185.007,119.000=184.995,121.000=185.007,122.000=184.995,123.000=185.007,124.000=184.995,126.000=185.007,127.000=184.995,129.000=185.007,130.000=184.995,131.000=185.007,132.000=184.995,133.000=185.007,134.000=184.995,135.000=185.007,136.000=184.995,137.000=185.007,138.000=184.995,139.000=185.007,140.000=123.203,140.500=371.134,141.000=185.007,142.000=184.995,143.000=185.007,144.000=184.995,145.000=185.007,146.000=184.995,147.000=185.007,148.000=123.203,148.500=371.134,149.000=123.214,149.500=371.134,150.000=184.995,151.000=185.007,152.000=184.995,153.000=185.007,154.000=184.995,155.000=185.007,156.000=123.203,156.500=371.134,157.000=185.007,158.000=184.995,159.000=185.007,160.000=184.995,161.000=185.007,162.000=184.995,163.000=185.007,164.000=123.203,164.500=371.134,165.000=123.214,165.500=371.134,166.000=123.203,166.500=371.134,167.000=123.214,167.500=371.134,168.000=123.203,168.500=371.134,169.000=123.214,169.500=371.134,170.000=123.203,170.500=371.134,171.000=123.214,171.500=371.134,172.000=377.358,172.125=73.141,172.250=377.358,172.625=73.141,172.750=377.358,173.000=377.754,173.125=73.141,173.250=377.358,173.625=73.141,173.750=377.358,174.125=73.141,174.250=377.358,174.625=73.141,174.750=377.358,175.000=377.754,175.125=73.141,175.250=377.358,175.625=73.141,175.750=377.358,176.000=184.995,177.000=185.007,178.000=184.995,179.000=185.007,180.000=92.500,182.000=184.995,183.000=185.007,184.000=184.995,185.000=185.007,186.000=184.995,187.000=185.007,188.000=184.995,189.000=185.007,190.000=184.995,191.000=185.007,192.000=184.995,193.000=185.007,194.000=184.995,195.000=185.007,196.000=184.995,197.000=185.007,198.000=184.995,199.000=185.007,200.000=122.979,200.375=373.186,200.750=184.995,201.000=122.553,201.250=377.358,201.625=73.141,201.750=377.358,202.000=184.995,203.000=185.007,204.000=184.995,205.000=185.007,206.000=184.995,207.000=185.007,208.000=184.995,209.000=185.007,210.000=184.995,211.000=185.007,212.000=184.995,213.000=185.007,214.000=184.995,215.000=185.007,216.000=184.995,217.000=185.007,218.000=184.995,219.000=185.007,220.000=184.995,221.000=185.007,222.000=184.995,223.000=185.007,224.000=184.995,225.000=185.007,226.000=184.995,227.000=185.007,228.000=184.995,229.000=185.007,230.000=123.203,230.500=371.134,231.000=123.214,231.500=371.134,232.000=122.532,232.500=377.358,233.000=377.754,233.125=73.141,233.250=377.358,233.625=73.141,233.750=377.358,234.000=184.995,235.000=185.007,236.000=184.995,237.000=185.007,238.000=184.995,239.000=185.007,240.000=184.995,241.000=185.007,242.000=184.995,243.000=185.007,244.000=184.995,245.000=185.007,246.000=184.995,247.000=185.007,248.000=184.995,249.000=185.007,250.000=123.203,250.500=371.134,251.000=185.007,252.000=184.995,253.000=185.007,254.000=123.203,254.500=371.134,255.000=123.214,255.500=371.134,256.000=123.203,256.500=371.134,257.000=123.214,257.500=371.134,258.000=184.995,259.000=185.007,260.000=184.995,261.000=185.007,262.000=184.995,264.000=122.993,264.375=373.186,264.750=184.995,265.000=122.532,265.250=377.358,265.625=73.141,265.750=377.358,266.000=185.007,267.000=184.995,268.000=185.007,269.000=123.203,269.500=371.134,270.000=185.007,271.000=184.995,272.000=185.007,273.000=123.203,273.500=371.134,274.000=185.007,275.000=184.995,276.000=185.007,277.000=184.995,278.000=185.007,279.000=184.995,280.000=185.007,281.000=184.995,282.000=123.214,282.500=371.134,283.000=184.995,284.000=185.007,285.000=184.995,286.000=185.007,287.000=184.995,288.000=185.007,289.000=184.995,290.000=185.007,291.000=184.995,292.000=185.007,293.000=184.995,294.000=185.007,295.000=184.995,296.000=185.007,297.000=184.995,298.000=185.007,299.000=184.995,300.000=185.007,301.000=184.995,302.000=185.007,303.000=184.995,304.000=185.007,305.000=184.995,306.000=185.007,307.000=184.995,308.000=185.007,309.000=184.995,310.000=185.007,311.000=184.995,312.000=185.007,313.000=184.995,314.000=185.007,315.000=184.995,316.000=185.007,317.000=184.995,318.000=185.007,319.000=184.995,320.000=185.007,321.000=184.995,322.000=185.007,323.000=184.995,324.000=185.007,325.000=184.995,326.000=185.007,327.000=184.995,328.000=185.007;
#STOPS:;
#BGCHANGES:;
// cache tags:
#FIRSTBEAT:5.000;
#LASTBEAT:316.000;
#SONGFILENAME:Songs/sdo pack 6/Evans/Evans.sm;
#HASMUSIC:1;
#HASBANNER:1;
#MUSICLENGTH:108.936;
// end cache tags

//---------------dance-single - ----------------
#NOTES:
     dance-single:
     :
     Hard:
     29:
     1.000,1.000,1.000,0.670,1.000,760.000,480.000,73.000,0.000,239.000:
0000
0000
0000
0000
,
0000
0210
0000
0000
,
1311
0001
0110
0011
1000
0001
0110
0001
,
1000
0112
0000
0000
1213
0000
2311
0000
,
3111
1000
0110
0011
1000
0001
0110
1000
,
0011
0000
0000
0000
0110
0000
0000
0000
1100
0000
0000
0000
0011
0000
0000
0000
0110
0000
0000
0000
1000
1000
0001
0001
0110
0000
0000
0000
1000
1000
0001
0001
,
2110
0000
3111
1100
0110
0011
0110
1100
,
0110
2011
0000
0000
3211
0000
1312
0000
,
2113
0000
3112
0000
,
2113
0000
3211
0000
0000
0000
0000
0000
1312
0000
0000
2113
0000
0000
3111
0000
,
1100
0001
1110
0011
1000
0010
1100
0001
,
1100
0010
0100
1000
0111
1000
0100
0010
0001
0010
0100
1000
0111
1000
0100
0010
,
1100
0001
0110
0011
1000
0001
0110
0001
,
1110
0112
0000
0000
2113
0000
3112
0000
,
1213
0000
1311
0110
1100
0001
0110
1000
,
0111
1000
0100
0010
1100
0010
0001
0010
0100
0010
0001
0010
1100
0010
0001
0010
,
1101
0010
1100
0110
1110
0001
0110
1000
,
0111
1110
1011
1101
0111
0000
1110
0000
,
2222
0000
0000
0000
0000
0003
0030
0300
,
3112
0000
0110
0000
0000
1100
0000
0000
0110
1100
0000
0000
0110
0000
1100
0000
,
2113
0000
0000
0011
0000
0000
0110
0000
0011
0110
0000
0000
0011
0000
0110
0000
,
3112
0000
0000
1100
0000
0000
0110
0000
2113
0000
0000
0011
0110
0000
0011
0000
,
3112
0000
0000
1100
0000
0000
0110
0000
0000
1100
0110
0000
1100
0000
0110
0000
,
2113
0000
0000
0011
0000
0000
0110
0000
0000
0011
0110
0000
0011
0000
0110
0000
,
3112
0000
0000
1100
0000
0000
0110
0000
0000
1100
0110
0000
1100
0000
0110
0000
,
2113
0000
0000
0011
0000
0000
0110
0000
3112
0000
0000
0110
1100
0000
0110
0000
,
1103
0000
0000
0110
0000
0000
0011
0000
0000
0110
0000
0000
1102
0000
0110
0000
,
2113
0000
0100
0011
0100
0000
0110
0000
0001
0110
0001
0110
0011
0000
0110
0000
,
3112
0000
1000
0110
1000
0000
0110
0000
1000
0110
1000
0110
1100
0000
0110
0000
,
2113
0000
0001
0110
0001
0000
0110
0000
0001
0110
0001
0110
0011
0000
0110
0000
,
3112
0000
1000
0110
1000
0000
0110
0000
1000
0110
1000
0110
1100
0000
0110
0000
,
2113
0000
0001
0110
0001
0000
0110
0000
0001
0110
0001
0110
0001
0001
0110
0000
,
3112
0000
1000
0110
1000
0000
0110
0000
1000
0110
1000
0110
1100
0000
0110
0000
,
1113
0111
1101
1011
1110
0111
1011
1101
,
0011
1000
0001
0001
1100
0000
0000
0000
1100
0001
1000
1000
0011
0000
0000
0000
0110
0000
0000
0000
1000
1000
0011
1000
0001
0000
0000
0000
1100
0001
1000
1000
,
0112
0000
0000
0000
0000
0000
0000
0000
0113
0000
0000
0000
1000
0000
0000
0000
0110
0000
0000
0000
0001
0000
0000
0000
1100
0000
0000
0000
0110
1000
1000
1000
,
0001
0000
0000
0000
0110
0000
0000
0000
1100
0000
0000
0000
0001
0000
0000
0000
0110
0000
0000
0000
1000
0000
0000
0000
0011
0000
0000
0000
0110
1000
1000
1000
,
0112
0000
0000
0000
0000
0000
0000
0000
1213
0000
0000
0000
0000
0000
0000
0000
1311
0000
0000
0000
0100
0000
0000
0000
0011
0000
0000
0000
0110
1000
1000
1000
,
0001
0000
0000
0000
0110
0000
0000
0000
1100
0000
0000
0000
0001
0000
0000
0000
0110
0000
0000
0000
1000
0000
0000
0000
0111
1000
0001
0001
0110
0001
1000
1000
,
0112
0000
0000
0000
0000
0000
0000
0000
1113
0000
0000
0000
1100
0000
0000
0000
0001
0000
0000
0000
1100
0000
0000
0000
0110
1000
0001
0001
0110
0001
1000
1000
,
0111
0000
0000
0000
1100
0000
0000
0000
0110
0000
0000
0000
0011
0000
0000
0000
1000
0000
0000
0000
0110
0000
0000
0000
0011
1000
0001
0001
1100
0001
1000
1000
,
0112
2113
3112
2113
,
3121
1231
1312
1123
,
1131
1110
1101
1011
1110
0111
1101
1011
,
0111
1100
0110
0011
0110
1100
0110
1100
0110
0011
0110
1100
0110
1100
0110
0011
,
2111
0000
0000
0000
0000
0000
0000
0000
3111
0000
1100
0000
0110
0000
0000
0011
,
0000
0000
0110
0000
1101
0000
0110
0000
0111
0000
1000
0011
1110
0000
0011
0000
,
1000
0110
0000
0011
1110
0000
1100
0000
0110
0000
1000
0011
1110
0000
0110
0000
,
0001
1100
0110
0000
1011
0000
0110
0000
0011
0000
1000
0011
1110
0000
1100
0000
,
0001
0000
0110
0000
0000
0000
0011
0000
1110
0001
1000
1000
0011
1000
0001
0001
0110
0000
0000
0000
1000
0000
0011
0000
1110
0000
0000
0000
0110
0000
0000
0000
,
2101
0000
0000
3112
0000
0000
2113
0000
3111
0000
0001
0110
1011
0000
1100
0000
,
0001
0110
0000
0011
1110
0000
0111
0000
1110
0000
0001
1100
0111
0000
1100
0000
,
0001
0110
0000
0011
1110
0000
1100
0000
0110
0000
1000
0011
1110
0000
0110
0000
,
0001
0000
1100
0000
0000
0000
0011
0000
1110
0000
0000
0000
0001
0000
0000
0000
1100
0001
1000
1000
0001
0001
1100
0001
1000
0000
0000
0000
0211
0000
0000
0000
,
0000
1312
0000
0000
1113
0000
0111
0000
1101
0000
0001
0110
1110
0000
0011
0000
,
1000
0110
0001
0110
1101
0000
0110
0000
1100
0000
0001
1100
0111
0000
0110
0000
,
0001
1100
0001
0110
1011
0000
0110
0000
1100
0000
0010
1100
0111
0000
0110
0000
,
0001
1100
0001
0110
1011
0000
0110
0000
0112
0000
0000
0000
2113
0000
0000
0000
,
3112
0000
0000
0000
2113
0000
3112
0000
1113
0000
0001
0110
1011
0000
0110
0000
,
1000
0110
1000
0011
1110
0000
0011
0000
0110
0000
0001
1100
0111
0000
0110
0000
,
0001
1100
0001
0110
1011
0000
0110
0000
1100
0000
0010
1100
0111
0000
0110
0000
,
0001
0000
1100
0000
0001
0000
0110
0000
1011
0000
0000
0000
0110
0000
0000
0000
1100
0001
1000
1000
0001
0001
1100
0001
1110
0000
0000
0000
0110
0000
0000
0000
,
0001
0001
1100
0001
1000
1000
0011
1000
0011
0000
0000
0000
0110
0000
0000
0000
2011
0000
0000
0000
0000
0000
0000
0000
3110
0000
0000
0000
0011
0000
0000
0000
,
1100
0011
1100
0011
2110
0000
3112
0000
,
1213
0000
1321
0000
1131
0100
0011
1000
,
0111
1000
0110
0001
1110
0011
0110
1100
,
0112
0000
0000
1123
0000
0000
1231
0000
2311
0000
0100
0000
0001
0000
0110
0000
,
3011
1000
0112
0000
1113
0001
1000
0110
,
0011
1000
0112
0000
1113
0001
1000
0110
,
1011
0000
0000
0000
0110
0000
0000
0000
1100
0000
0000
0000
0110
0000
0000
0000
0011
0000
0000
0000
0110
1000
0001
0001
1100
0001
1000
1000
0110
0000
0011
0000
,
1000
1000
0110
1000
0001
0001
0110
1000
0110
0000
0000
0000
0011
0000
0000
0000
2110
0000
0000
0000
0000
0000
0000
0000
3111
0000
0000
0000
1100
0000
0000
0000
,
0110
0011
1000
0000
0111
0000
1100
0000
0110
0000
1000
0011
1110
0000
0110
0000
,
1000
0011
1000
0110
1101
0000
0110
0000
0011
0000
1000
0110
1011
0000
1100
0000
,
0001
0001
1100
0001
1000
1000
0011
1000
0111
1000
0001
0001
1100
0001
1000
1000
0110
0000
0000
0000
0001
0000
1100
0000
0111
0000
0000
0000
0110
0000
0000
0000
,
1000
0000
0000
0000
0011
0000
0000
0000
0110
0000
0000
0000
1100
0000
0000
0000
0011
1000
0001
0001
1000
1000
0110
0001
1000
0000
0000
0000
0110
0000
0000
0000
,
0001
0001
1100
0001
1000
1000
0011
1000
0110
0000
0000
0000
0011
1000
0001
0001
1100
0001
1000
1000
0001
0001
1100
0001
1000
0000
0000
0000
0110
0000
0000
0000
,
0001
0000
1100
0000
0001
0000
0110
0000
0011
0000
0000
0000
0011
1000
0001
0001
1100
0000
0000
0000
0001
0001
1100
0001
0010
0000
0000
0000
1100
0001
1000
1000
,
0001
0000
0110
0000
1000
1000
0011
1000
0110
0000
0000
0000
1100
0000
0000
0000
1100
0000
0000
0000
0001
0000
0110
0000
0001
0000
0001
0000
1100
0000
0001
0000
,
1000
0011
1000
0011
1100
0001
1100
0001
1110
0000
0000
0000
0000
0000
0000
0000
,
0000
0000
0000
0000
,
0000
0000
0000
0000
,
0000
0000
0000
0000
,
0000
0000
0000
0000
,
0000
0000
0000
0000
,
0000
0000
0000
0000
,
0000
0000
0000
0000
,
0000
0000
0000
0000
,
0000
0000
0000
0000
,
0000
0000
0000
0000
,
0000
0000
0000
0000
,
0000
0000
0000
0000
,
0000
0000
0000
0000
,
0000
0000
0000
0000
,
0000
0000
0000
0000
,
0000
0000
0000
0000
,
0000
0000
0000
0000
,
0000
0000
0000
0000
,
0000
0000
0000
0000
,
0000
0000
0000
0000
,
0000
0000
0000
0000
,
0000
0000
0000
0000
,
0000
0000
0000
0000
,
0000
0000
0000
0000
,
0000
0000
0000
0000
,
0000
0000
0000
0000
,
0000
0000
0000
0000
;

//---------------dance-single - ----------------
#NOTES:
     dance-single:
     :
     Medium:
     1:
     1.000,0.979,1.000,0.064,1.000,634.000,146.000,7.000,0.000,1.000:  // measure 1
0000
0000
0000
0000
,  // measure 2
0000
0000
0000
0000
0000
2000
0000
0000
,  // measure 3
3000
0000
0010
0100
0000
0000
0001
0000
0001
0000
0000
0010
0000
0010
0000
0100
,  // measure 4
0001
0000
0001
0000
1000
0010
0010
0000
0000
0000
0101
0000
0000
0000
0010
1000
,  // measure 5
0000
0000
0000
0000
0101
0000
0101
0000
0000
0000
0010
1000
0010
1000
0000
0001
,  // measure 6
0100
0110
0110
1001
,  // measure 7
0101
0000
0000
0000
0110
0000
0110
0000
0000
0000
0000
1001
0000
1001
0000
0000
,  // measure 8
0000
0110
0000
0000
0101
0000
0000
0000
1010
0000
0000
0101
0000
0000
0000
0000
,  // measure 9
0110
0000
1010
0000
0000
0000
0001
0100
0000
0101
0000
0000
0000
0110
0000
0000
,  // measure 10
0010
1000
0000
1001
0000
0001
0000
0100
0000
0110
0000
0000
1001
0000
0000
0000
,  // measure 11
0010
0100
0000
0101
0000
0010
0100
0001
1000
0000
0010
0100
0000
1001
0000
0000
,  // measure 12
0110
0000
0101
0000
0010
1000
0000
1001
0000
0110
0000
0001
0100
0000
1010
0000
,  // measure 13
0000
0101
0000
0110
0000
0000
0101
0000
1001
0000
0000
1010
0100
0000
0001
0100
,  // measure 14
0101
0000
0000
1010
0000
1010
0000
0000
0101
0000
0000
0100
0010
0001
0000
0100
,  // measure 15
0010
0000
0000
1010
0000
1001
0000
0110
0000
0000
0000
0101
0000
0101
0000
0000
,  // measure 16
1010
0000
0000
1001
0000
0110
0000
0000
0101
0000
0101
0000
0000
1001
0000
0000
,  // measure 17
1010
0000
0110
0000
0000
0110
0000
0110
0000
0000
1001
0000
1001
0000
0000
0110
,  // measure 18
0000
0110
0000
0001
1000
0000
1001
0000
0110
0000
0000
0000
0101
0000
0000
0002
,  // measure 19
0000
0000
0000
0000
,  // measure 20
0000
0000
0003
1000
0000
0010
0010
0000
0100
0000
0001
0000
0001
1000
0000
0010
,  // measure 21
0100
0000
0010
0100
0001
0000
0001
1000
0000
0010
0000
0010
0100
0000
0001
1000
,  // measure 22
0000
0010
0000
0100
0010
0100
0000
0001
0000
1000
0010
0000
0010
0100
0001
0000
,  // measure 23
0100
0010
0000
1000
0010
0000
0100
0001
0000
0100
0010
0000
1010
0000
0100
0001
,  // measure 24
0000
0100
0010
0000
1000
0010
0000
0100
0001
0000
0100
0010
0000
1000
0001
0000
,  // measure 25
0100
0010
0100
0000
0010
1000
0001
0000
0100
0010
0000
0100
0001
0000
1000
0010
,  // measure 26
0000
0100
0001
0000
0100
0010
0000
0100
0010
0000
1000
0001
0000
0100
0010
0100
,  // measure 27
0001
0010
0000
1000
0000
0011
0000
0100
0011
0000
0101
0000
0000
1001
0000
0010
,  // measure 28
0100
0010
0000
0110
0000
0100
0010
0000
1001
0000
0001
1000
0000
0001
0100
0010
,  // measure 29
0000
0110
0000
0100
0010
0000
1001
0000
0001
0100
0001
0000
0101
0000
0010
0100
,  // measure 30
0010
1000
0001
0000
0000
0110
0000
0101
0000
0010
1000
0001
0000
0100
0010
0101
,  // measure 31
0000
0000
1010
0000
0100
0001
0000
0100
0010
0000
1001
0000
0010
0100
0001
0000
,  // measure 32
1000
0010
0000
0101
0000
0100
0010
0000
1000
0001
0000
0100
0010
0000
0101
0000
,  // measure 33
0000
0110
0000
0000
1001
0000
0001
0000
0100
0010
0000
0100
0010
1001
0000
0000
,  // measure 34
0010
0100
0010
0000
0100
0001
0000
0001
1000
0000
0010
0000
0010
0100
0001
0000
,  // measure 35
0101
0000
0000
1010
0000
0010
0100
0000
0001
0100
0000
0001
0100
0001
0100
0000
,  // measure 36
0000
1010
0000
0000
0101
0000
0000
0000
0000
0101
0000
0000
1010
0000
1010
0000
,  // measure 37
0000
0000
0101
0000
0101
0000
0000
0000
0000
1010
0000
0000
0101
0000
0101
0000
,  // measure 38
0000
0000
1010
0000
1010
0000
0000
0000
0000
0110
0000
0000
0101
0000
0101
0000
,  // measure 39
0000
1010
1010
0000
0101
0000
0101
0101
,  // measure 40
0000
1010
0000
0000
1010
0000
1010
0000
0000
0000
0001
1000
0101
0000
0001
0100
,  // measure 41
0000
1010
1010
1010
0000
1110
0110
0110
,  // measure 42
0000
0101
0000
0000
0101
0000
0000
0000
1010
0000
0000
0000
1010
0000
0000
0000
,  // measure 43
0101
0101
0110
1010
,  // measure 44
1010
0000
0110
0000
0110
0000
0110
0000
1001
0000
1001
0000
0001
0100
0001
0100
,  // measure 45
0101
0110
0110
0110
0110
1001
1001
1001
,  // measure 46
1002
0000
0000
0000
0000
0000
0013
0110
,  // measure 47
1000
0100
0000
0010
0000
0010
0000
0100
0010
0000
0100
0001
0000
0100
0000
0010
,  // measure 48
0000
1000
0010
0000
0100
0001
0000
0100
0010
0000
1000
0010
0100
0000
0001
0100
,  // measure 49
0000
0010
0100
0010
0000
1000
0001
0000
0100
0010
0000
0100
0001
0000
0100
0010
,  // measure 50
0000
1000
0010
0000
0100
0001
0100
0000
0010
1000
0000
0010
0000
0100
0010
0000
,  // measure 51
0100
0010
0000
0100
0000
0010
0000
0000
0000
0100
0010
0001
0000
0100
0000
0010
,  // measure 52
0100
0000
0010
1000
0010
0000
0100
0001
0000
0100
0000
0010
0000
0100
0010
0000
,  // measure 53
1000
0000
0001
0100
0000
0010
0100
0000
0010
0100
0000
0001
0000
0100
0010
0000
,  // measure 54
1000
0000
0010
0000
0100
0001
0000
0100
0010
0000
0100
0000
0010
0000
0100
0010
,  // measure 55
0000
0100
0001
0000
0000
1000
0001
0000
0100
0010
0000
0000
0100
0001
0100
0000
,  // measure 56
0010
1000
0010
0000
0100
0001
0000
0100
0010
0100
0000
0010
0100
0000
0001
0000
,  // measure 57
1000
0001
0000
0100
0010
0000
0100
0001
0100
0000
0001
0000
1000
0010
0000
0100
,  // measure 58
0010
0100
0001
0000
1000
0010
0000
0100
0001
0100
0000
0010
0100
0010
0000
0100
,  // measure 59
0000
0001
1000
0000
0010
0100
0000
0010
0100
0001
0000
0000
0110
0000
0100
0010
,  // measure 60
0000
1000
0000
0010
0100
0001
0000
0100
0000
0010
0100
0000
0001
0100
0000
0001
,  // measure 61
0100
0000
0010
1000
0000
0010
0100
0001
0000
0100
0000
0010
0000
0100
0010
0100
,  // measure 62
0000
0001
0000
0001
0000
1000
0010
0000
0100
0000
0010
0100
0000
0010
0100
0000
,  // measure 63
0010
0000
0100
0010
0000
0000
0200
0000
0000
0000
0300
0020
0000
0000
0000
0000
,  // measure 64
0030
0000
0000
0110
0000
0010
0100
0000
0001
1000
0001
0000
0000
0000
0010
0100
,  // measure 65
0000
0000
0000
0101
0000
0000
0000
0000
1010
0000
0000
0000
0000
0000
0101
0000
,  // measure 66
0101
0000
0000
0000
0000
1010
0000
0010
1000
0000
0101
0000
0000
0100
0010
0000
,  // measure 67
0100
0001
0100
0000
0000
0000
0000
0010
0000
0000
0010
0000
0000
0100
0000
0100
,  // measure 68
0000
0010
0000
0000
1000
0010
0000
0000
0010
0100
0000
0000
0000
0010
0000
0010
,  // measure 69
0000
0100
0000
0010
0000
0100
0001
0000
0001
0000
0000
1000
0000
0010
0000
0010
,  // measure 70
0000
0100
0000
0001
0000
0100
0000
0010
0000
0010
0000
0100
0000
1000
0000
0100
,  // measure 71
0000
0010
0000
0010
0000
0000
0200
0000
0000
0000
0000
0300
0000
0010
0000
0010
,  // measure 72
0000
1000
0010
0000
0100
0001
0000
0100
0010
0000
0100
0010
0000
1000
0001
0000
,  // measure 73
0100
0010
0100
0001
0000
1000
0010
0000
0100
0000
0001
0100
0010
0000
1000
0001
,  // measure 74
0000
0000
0100
0010
0100
0010
0000
0100
0001
0000
1000
0010
0000
0100
0010
0000
,  // measure 75
0100
0001
0000
1000
0000
0010
0100
0001
0000
0100
0010
0000
1000
0001
0000
0000
,  // measure 76
0100
0010
0000
0110
0000
0100
0001
0000
1000
0000
0010
0100
0010
0000
0100
0001
,  // measure 77
0000
0100
0010
0000
0000
1001
0000
0000
0010
0100
0000
0010
0100
0000
0001
0100
,  // measure 78
0000
0010
0100
0000
0010
1000
0001
0000
0000
0100
0010
0000
0100
0010
0000
1000
,  // measure 79
0001
0000
0100
0000
0000
0100
0000
0100
0000
0020
0000
0000
0000
0000
0000
0000
,  // measure 80
0030
0000
0000
0000
;
